Noah 2014 720p BluRay Dual Audio English Hindi GOPISAHI.mkv

.
Download .Torrent Magnet
Torren Name: Noah 2014 720p BluRay Dual Audio English Hindi GOPISAHI.mkv
Last Check:
20 February 2018 (18:02)
File size: 1009.96 MB
Categories: Hindi Dubbed Movies
Uploader: iamdon
Seeders: 85 Leechers: 15 Downloaded: 42118
Last scrape: 20 February 2018 18:02:11


ebff283becf5d0f55d55d198c11928ba.png


Video 
ID                             : 1 
Format                         : AVC 
Codec ID                       : V_MPEG4/ISO/AVC 
Duration                       : 2 h 17 min 
Bit rate                       : 847 kb/s 
Width                          : 1 280 pixels 
Height                         : 696 pixels 
Display aspect ratio           : 1.85:1 
Frame rate mode                : Constant 
Frame rate                     : 23.976 (24000/1001) FPS 
Original frame rate            : 23.976 (23976/1000) FPS 
Stream size                    : 835 MiB (83%) 
Writing library                : x264 core 142 r2409 d6b4e63 

Audio #1 
Format                         : AAC 
Duration                       : 2 h 17 min 
Bit rate                       : 84.7 kb/s 
Channel(s)                     : 6 channels 
Channel positions              : Front: L C R, Side: L R, LFE 
Sampling rate                  : 44.1 kHz 
Stream size                    : 83.6 MiB (8%) 
Language                       : English 

Audio #2 
Format                         : AAC 
Duration                       : 2 h 17 min 
Bit rate                       : 89.4 kb/s 
Channel(s)                     : 6 channels 
Channel positions              : Front: L C R, Side: L R, LFE 
Sampling rate                  : 44.1 kHz 
Frame rate                     : 43.066 FPS (1024 SPF) 
Stream size                    : 88.1 MiB (9%) 
Language                       : Hindi 

Text 
Language                       : English